Suche Liedname von "DJ Tiesto @ Maxima FM 01.01.04"

  • Hi,


    hoffentlich bin ich im richtigen Unterforum. Und zwar finde ich ein Lied das Ferry Corsten auf der Trance Energy 2004 aufgelegt hat, absolut hammer, melodisch und textlich. Habe das LiveSet und habe auch die Playlist, aber eben keine Ahnung welches Lied es nun ist. Es fängt ca. bei Minute 52 an und geht dann mit dem Gelaber und Gesang bis ca. 57.


    "Tell me how you are, tell me how you feel" usw.


    Brauch die CD unbedingt, weiß jemand wie das Lied heißt, gibt es das auf CD, brauche das ums verrecken.


    tiesto-fan

  • Btw, villeicht hilft dir die Cue ja weiter:


    FILE "01-trance_energy_2004_-_ferry_corsten_live_(538)-02-01-2004-xds.mp3" WAVE
    REM ** downloaded at Spandel.nL **
    TRACK 01 AUDIO
    TITLE "Sahara"
    PERFORMER "Solid Globe"
    INDEX 01 00:00:00
    TRACK 02 AUDIO
    TITLE "Velvet Morning (Aalto Remix)"
    PERFORMER "Kyau vs. Albert"
    INDEX 01 07:36:53
    TRACK 03 AUDIO
    TITLE "Alba"
    PERFORMER "Super8"
    INDEX 01 14:53:57
    TRACK 04 AUDIO
    TITLE "Enigma"
    PERFORMER "AR52"
    INDEX 01 22:01:43
    TRACK 05 AUDIO
    TITLE "Always (Wavestorm Remix)"
    PERFORMER "Scott Mac & Simon Eve"
    INDEX 01 27:41:57
    TRACK 06 AUDIO
    TITLE "Circulation"
    PERFORMER "Green Atlas"
    INDEX 01 32:59:42
    TRACK 07 AUDIO
    TITLE "Right Of Way"
    PERFORMER "Ferry Corsten"
    INDEX 01 40:51:46
    TRACK 08 AUDIO
    TITLE "Electronic Malfunction (Cor Fijneman's Outstanding Mix)"
    PERFORMER "DJ Ton TB"
    INDEX 01 47:56:41
    TRACK 09 AUDIO
    TITLE "Winter Sun"
    PERFORMER "Afterburn"
    INDEX 01 54:31:33
    TRACK 10 AUDIO
    TITLE "Cyber Desire"
    PERFORMER "Musix"
    INDEX 01 60:05:51
    TRACK 11 AUDIO
    TITLE "Rock Your Body, Rock (Extended Mix)"
    PERFORMER "Ferry Corsten"
    INDEX 01 66:46:21
    TRACK 12 AUDIO
    TITLE "Fearless (Push Remix)"
    PERFORMER "Rio Klein"
    INDEX 01 72:35:11
    TRACK 13 AUDIO
    TITLE "Somebody (Ferry Corsten Remix)"
    PERFORMER "F Massif"
    INDEX 01 78:45:59
    TRACK 14 AUDIO
    TITLE "Force Of Gravity (Ferry Corsten Bootleg)"
    PERFORMER "BT"
    INDEX 01 84:56:09
    TRACK 15 AUDIO
    TITLE "Eyes Wide Shut"
    PERFORMER "Sinesweeper"
    INDEX 01 91:59:26
    TRACK 16 AUDIO
    TITLE "Loaded (B Side)"
    PERFORMER "Sander van Doorn"
    INDEX 01 97:01:02
    TRACK 17 AUDIO
    TITLE "Tao Tek"
    PERFORMER "Mauro Picotto feat. Riccardo Ferri"
    INDEX 01 104:06:44
    TRACK 18 AUDIO
    TITLE "Escape from P.G. (Pedro Delgado Remix)"
    PERFORMER "Quarz"
    INDEX 01 109:17:23
    TRACK 19 AUDIO
    TITLE "Lektrik (Adams Inside Out Mix)"
    PERFORMER "Adam Sheridan"
    INDEX 01 113:25:00

  • Mist, habe absoluten Müll gelabert. Es ist Minute 51:30-56:30 im Set DJ Tiesto @ maxima FM 1.1.04. Bin gerade am hochladen, irgendwie ist die Verbindung arschlahm, dauert ein paar minuten, sorry, war voll die Verwechslung, hätte ich merken müssen


    tiesto-fan

  • also ich hab ein 2stunden set vom ferry von der TE04,aber da kommt kein lied mit diesen vocals vor...


    edit:


    ah,der fair hat grad die playlist gepostet... und um minute 52-57 wird auch net gelabert/gesungen ... :hmm:


    edit²:


    ok,dann hat sich das ja erledigt :D

  • Zweit Tipps bei so was:


    1. Wenn Vocals, dann ein paar Worte, und ganz wichtig wer gesungen hat (Frau, Mann, Kind, Chor...)
    2. Wenn Du die Playlist hast, suche einen Track der ungefähr zeitlich nah dran liegt, den D kennst, und dann zählst Du anhand der Playlist einfach die Tracks vorwärts oder rückwärts.